#TITLE:Gekkou;
#SUBTITLE:~Sky Fid original~;
#ARTIST:Tatsh feat K. Hoshino;
#TITLETRANSLIT:;
#SUBTITLETRANSLIT:;
#ARTISTTRANSLIT:;
#CREDIT:;
#BANNER:gekkou -banner-.png;
#BACKGROUND:gekkou -bg-.png;
#LYRICSPATH:;
#CDTITLE:sky fid.png;
#MUSIC:32 - Gekkou_LOTB.mp3;
#OFFSET:-1.209;
#SAMPLESTART:39.720;
#SAMPLELENGTH:12.000;
#SELECTABLE:YES;
#BPMS:0.000=155.030,180.000=77.515,196.000=155.030;
#STOPS:;
#BGCHANGES:;
// cache tags:
#FIRSTBEAT:0.000;
#LASTBEAT:292.000;
#SONGFILENAME:Songs/Chilean Keyboard Megapack 3/(Sky Fid) Gekkou/Gekkou.sm;
#HASMUSIC:1;
#HASBANNER:1;
#MUSICLENGTH:135.227;
// end cache tags

//---------------dance-single - Challenge Edit----------------
#NOTES:
     dance-single:
     Challenge Edit:
     Challenge:
     11:
     1.000,1.000,1.000,0.399,1.000,887.000,163.000,54.000,0.000,1.000:
1001
0100
0001
0100
1000
0010
0100
1000
0100
0010
1000
0001
0100
0010
0001
0010
,
0100
0001
0100
1000
0001
0100
0010
1000
0010
0100
0010
1000
0001
1000
0001
0010
,
1000
0001
0100
0010
1000
0100
0010
0001
1000
0001
0100
0010
1000
0001
0010
0001
,
0100
1000
0001
0100
0010
0000
1000
0001
0000
0001
0100
0000
1001
0010
1001
0000
,
0010
0100
0001
0010
0100
0001
0010
0001
1000
0100
1000
0010
1100
0000
1100
0000
,
1000
0100
0010
1000
0100
1000
0001
0010
1000
0010
0100
1000
0011
0000
0011
0000
,
1001
0100
0010
0100
0001
0010
0100
1000
0011
1000
0100
0010
1000
0100
0001
0100
,
2002
0000
0000
0000
0000
0000
0000
0000
0000
0000
0000
0000
0000
0000
0000
0000
0000
0000
3003
0000
0000
0000
0000
0000
0000
0000
0000
0000
0000
0000
0000
0000
0000
0000
0000
0000
2020
0000
0000
0000
0000
0000
0000
0000
0000
0000
0000
0000
0000
0000
0000
0000
0000
0000
3030
0000
0000
0000
0000
0000
0000
0000
0000
0000
0000
0000
0000
0000
0000
0000
0000
0000
0220
0000
0000
0000
0000
0000
0000
0000
0000
0000
0000
0000
0000
0000
0000
0000
0000
0000
0000
0000
0000
0000
0000
0000
0000
0000
0000
0000
0000
0000
0330
0000
0000
0000
0000
0000
0000
0000
0000
0000
0000
0000
0000
0000
0000
0000
0000
0000
0001
0000
0000
0000
0000
0000
0000
0000
0010
0000
0000
0000
0000
0000
0000
0000
0100
0000
0000
0000
0000
0000
0000
0000
1000
0000
0000
0000
0000
0000
0000
0000
0000
0000
0000
0000
0000
0000
0000
0000
0000
0000
0000
0000
0000
0000
0000
0000
0110
0000
0000
0000
0000
0000
0000
0000
0000
0000
0000
0000
0000
0000
0000
0000
0000
0000
0000
0000
0000
0000
0000
0000
,
1001
0000
0100
0000
0010
0000
0110
0000
1000
0100
1000
0000
0010
0100
0001
0000
,
1010
0000
0100
0000
1001
0000
0100
1000
0100
0010
1000
0000
0001
0010
0001
0000
,
0011
0000
1000
0000
0011
0000
0101
0000
0001
0100
0010
0000
1000
0010
0001
0000
,
1010
0000
0100
0000
0011
0000
0100
0001
1000
0001
0100
0000
0100
0001
1000
0010
,
1001
0000
0100
0000
1010
0000
1100
0000
0000
0000
0001
0100
0010
0000
0110
0000
,
1000
0100
0010
0001
0100
0010
0001
0010
0100
1000
0100
0010
0100
0001
1000
0100
,
0002
0000
0000
0000
0010
0000
0000
0010
1000
0003
0010
0100
1010
0000
0202
0000
,
0000
0303
0000
0000
1000
0000
0000
0010
1000
0011
0100
0011
1000
0011
0100
0011
,
1000
0000
0000
0000
1000
0000
0000
0000
0101
0010
0000
1000
0000
0000
0100
0000
,
0000
0000
1010
0000
1001
0000
0000
0000
0110
0001
0000
0100
0000
0000
1010
0000
,
0000
0000
0101
0000
1001
0000
0000
0000
1100
0010
0000
0101
0000
0000
0110
0000
,
0000
0000
1010
0000
1001
0000
1001
0100
0010
1000
0100
0010
0001
0000
1010
0000
,
1001
0000
0000
0100
0000
0000
1010
0000
0110
0000
0000
1000
0000
0000
0010
0100
,
0011
0000
0000
1000
0000
0000
0101
0000
0010
0100
0001
0010
0100
1000
0101
0000
,
1000
0000
0010
1000
0001
0000
0110
0000
0000
0000
1010
0100
0001
0000
0110
0000
,
1010
0000
0100
0000
0010
0000
0000
0010
0100
0000
0010
0100
1000
0100
0010
0001
,
2200
0000
0000
3300
0000
0000
0220
0000
0000
0330
0000
0000
0022
0000
0000
0000
0000
0000
0033
0000
1100
0000
0000
0000
0101
0000
0000
0000
0110
0000
0000
0000
,
1001
0010
0100
0001
0100
0010
1000
0100
0010
0001
0100
0010
1000
0001
0100
0010
,
1000
0100
1000
0001
0100
0002
0013
0100
1000
0200
0301
0100
1000
0002
0103
0010
,
1000
0002
0013
0100
0010
0001
1000
0010
0100
0010
1000
0001
0100
0010
0100
0010
,
1000
0000
0000
0000
0110
0000
0000
0000
1010
0000
0010
0101
0000
0001
0110
0000
,
1001
0000
0000
0000
0101
0000
1000
0010
0000
0001
0010
1000
0011
0000
0000
0000
,
0010
0000
0010
0000
1100
0000
1010
0100
0001
1000
0100
0010
1001
0000
0000
0000
,
0010
0100
0010
0000
1001
0000
0011
0100
0010
0100
0001
0100
0010
0000
1100
0010
,
0001
0010
0100
0000
0001
0010
0001
0000
1010
0100
0001
0000
0010
0100
0001
0100
,
1001
0100
0010
1000
0100
0010
0001
0100
0010
1000
0100
1000
0101
0000
0000
0101
,
0101
0000
1000
0001
0100
0010
0100
0001
0010
0001
1000
0010
1001
0000
0000
1001
,
1001
0000
0100
0010
0100
1000
0100
0010
1100
0001
0100
0001
0010
0100
1000
0100
,
0011
1000
0010
0100
0001
0100
0010
1000
0202
0000
0303
0000
2002
0000
3003
0000
,
0220
0000
1330
0001
0100
0010
1000
0100
0010
0001
0100
0001
1000
0000
0000
0101
,
1100
0000
1000
0001
0100
0010
1000
0001
0010
0100
1000
0001
0100
0000
0000
0110
,
1001
0000
0010
1000
0001
0010
0100
1000
0011
0100
1000
0100
0011
0100
0001
0100
,
1001
0000
0100
0010
0100
0001
1000
0010
1100
0001
0010
0100
1000
0010
0100
0010
,
1001
0000
0100
0001
0100
1000
0001
1000
0101
0010
0100
0010
1000
0001
0100
0001
,
1010
0000
1000
0010
0001
0010
0100
0010
1000
0001
0010
0001
1100
0000
0000
0000
,
1100
0000
0001
0010
0100
1000
0010
0000
0101
1000
0010
0100
0001
0010
0100
0000
,
2002
0000
0000
3003
,
1001
0010
0100
0001
0000
0001
0010
0100
1000
0010
0100
0101
0000
0101
1000
0010
,
0100
0000
0010
0000
1000
0000
0100
0000
0000
0000
0010
0000
0001
0000
0100
0000
0010
0000
1000
0000
0020
0000
0000
0000
0100
0000
0030
0001
0000
0000
1000
0000
,
1001
0000
0010
0100
1000
0100
0010
0000
1010
0100
1000
0001
0010
0000
0010
0100
,
1001
0000
0000
0000
0000
0000
0000
0000
0000
0000
0000
0000
0000
0000
0000
0000
0000
0000
0000
0000
0000
0000
0000
0000
1010
0000
0000
0000
0000
0000
0000
0000
0000
0000
0000
0000
0101
0000
0000
0000
0000
0000
0000
0000
0000
0000
0000
0000
1001
0000
0000
0000
0000
0000
0000
0000
0000
0000
0000
0000
0000
0000
0000
0000
0000
0000
0000
0000
0000
0000
0000
0000
1010
0000
0000
0000
0000
0000
0000
0000
0000
0000
0000
0000
0100
0000
0000
0000
0000
0000
0000
0000
0000
0000
0000
0000
1001
0000
0000
0000
0000
0000
0100
0000
0000
0000
0000
0000
0010
0000
0000
0000
0000
0000
1000
0000
0000
0000
0000
0000
0100
0000
0000
0000
0000
0000
0010
0000
0000
0000
0000
0000
0001
0000
0000
0000
0000
0000
0100
0000
0000
0000
0000
0000
0010
0000
0000
0000
0000
0000
0000
0000
0000
0000
0000
0000
1000
0000
0000
0000
0100
0000
0000
0000
0010
0000
0000
0000
0001
0000
0000
0000
0000
0000
0000
0000
0000
0000
0000
0000
0110
0000
0000
0000
0000
0000
0000
0000
0000
0000
0000
0000
,
1001
0000
0010
0000
1010
0000
0100
0000
0001
0010
0100
0000
1000
0010
0100
0000
,
1010
0000
0100
0000
1001
0000
0010
0000
0100
0001
0010
0000
0100
1000
0010
0100
,
1010
0000
0100
0000
1001
0000
0110
0000
1001
0100
0010
0000
0010
0100
1001
0000
,
1010
0000
0000
0000
0101
0000
0000
0000
1001
0000
0001
1100
0000
0010
0101
0000
,
1001
0000
0000
0000
0110
0000
1000
0010
0100
0001
1100
0001
0100
0000
0000
0000
,
0011
0000
0110
0000
1100
0000
0001
0100
1000
0001
0010
0000
1100
0000
0000
0000
,
0002
0100
0010
0103
0001
0010
0001
0100
0020
0100
0001
1030
0100
1000
0001
0010
,
0200
0001
1000
0301
2000
0010
0100
3001
0020
0100
0001
1030
0010
0100
0001
0000
,
1000
0100
0010
0001
0100
0010
1000
0100
1000
0010
0001
0010
0100
0001
1000
0100
,
0001
1000
0010
0001
0010
0100
1000
0100
0010
0100
1000
0001
0100
0001
1000
0010
,
0001
1000
0100
0001
1000
0100
0010
0001
1000
0010
0001
0010
1000
0100
1000
0001
,
0010
1000
0010
0001
1000
0000
0011
1000
0000
0110
1000
0000
1001
0000
0101
0000
,
0100
1000
0100
0001
0010
0100
0010
0001
1000
0100
0010
0001
1010
0100
1001
0000
,
0001
0010
1000
0010
0001
1000
0100
0001
0100
1000
0010
1000
0011
0100
1010
0000
,
2020
3030
0100
0001
0100
0010
1000
0100
0022
0033
1000
0010
0001
0010
1000
0001
,
2200
0000
0000
3300
0000
0000
0000
0000
0000
2002
0000
0000
3003
0000
0000
0000
0000
0000
0202
0000
0000
0000
0000
0000
0303
0000
0000
0000
0000
0000
0001
0000
0100
0000
0010
0000
1000
0000
0000
0000
0000
0000
0101
0000
0000
0000
0000
0000
,
1000
0100
0010
1000
0100
0010
1000
0100
1000
0001
0010
0100
1000
0010
1000
0001
,
0100
0010
0001
0100
0020
0031
1000
0100
0020
0130
1000
0001
0020
0031
1000
0001
,
0200
0000
1300
0000
0001
0000
0100
0000
1000
0000
0001
0000
0100
0000
0001
0000
0010
0000
1000
0000
0010
0000
0001
0000
0100
0000
0010
0000
2000
3000
1000
0000
,
0002
0103
1000
0100
0020
0130
0001
0010
2000
3010
0001
0200
0310
0100
2000
3100
,
0020
1030
0000
0100
0010
0000
0011
1000
0000
0010
1000
0001
0100
0010
1001
0000
,
1000
0010
0000
0101
0010
0000
1000
0010
1000
0010
0001
0000
0100
0000
1001
0000
,
1100
0010
0100
0001
1000
0100
0010
0100
1001
0100
0010
0100
0001
0010
0100
0010
,
0101
0000
0000
1010
0000
0000
0101
0000
0000
0000
1010
0100
1001
0100
0001
0100
,
1001
0000
0000
0000
;
